category: software18-11-2017 03:33
Enterbrain RPG Maker MV 1.51 171118
category: software18-11-2017 03:26
Scientific Toolworks Understand 4.0.910.(x86x64) 171118
category: software18-11-2017 03:19
Blumentals Easy Button & Menu Maker Pro 4.2.0.28 Multilingual 171118
category: software18-11-2017 03:11
Urbanistic Gypsy Trap | MULTiFORMAT 171118
category: software18-11-2017 03:04
Mitchell Estimating (UltraMate) [06.2015] English 171118
New Ebooks
» » Michael Stearns - MOcean (1984)

Michael Stearns - MOcean (1984)

0 0
Category: musics Published: alice Date: 16-05-2015, 09:00

Michael Stearns - M'Ocean (1984)
EAC Rip | FLAC (image+.cue+log) - 221 MB | MP3 CBR 320 kbps (LAME 3.93) - 119 MB | Covers - 40 MB
Genre: Ambient | RAR 3% Rec. | Label: Sonic Atmospheres (CD 309)

"M’Ocean" was originally released in 1983 on cassette by the Continuum Montage label under the title "Light Play" and re-released for the first time on CD by the Sonic Atmospheres label a year later. Hearing the first notes of "M’Ocean", you can immediately hear Michael’s massive and distinguished sound with which he received world fame a couple of years later with classics like "Planetary Unfolding", "Chronos" and "Encounter". This piece, "Sirens", was written and performed entirely on an Oberheim OB8-synth immediately Michael took it out of its box. Dear musician, do you recognize this feeling? "M’Ocean" can also be regarded a Michael Stearns classic: from the little symphonies "Sirens" and "Lightplay", the intense ambiences of "Marriage Chords", the sequencer-driven title track and "Fireflies Delight" and the pastoral voices in "Vickey’s Dance" to Igor Stravinsky’s "Walking Song". A real warming-up for all the great things to come. Michael Stearns is one of the biggest names in contemporary electronic music. This early music already shows why.

Tracklist:
01. Sirens
02. Marriage Chords
03. M'ocean
04. Lightplay
05. Vicki's Dance
06. Fireflies' Delight
07. Walking Song

Total time: 50:48

EAC log
Exact Audio Copy V0.99 prebeta 3 from 28. July 2007

EAC extraction logfile from 8. November 2008, 19:24

Michael Stearns / M'ocean

Used drive : HP DVD Writer 940d Adapter: 4 ID: 4

Read mode : Secure
Utilize accurate stream : Yes
Defeat audio cache : Yes
Make use of C2 pointers : No

Read offset correction : 6
Overread into Lead-In and Lead-Out : No
Fill up missing offset samples with silence : Yes
Delete leading and trailing silent blocks : No
Null samples used in CRC calculations : Yes
Used interface : Installed external ASPI interface

Used output format : User Defined Encoder
Selected bitrate : 320 kBit/s
Quality : High
Add ID3 tag : No
Command line compressor : C:Program FilesExact Audio CopyFlacflac.exe
Additional command line options : --fast -T "ARTIST=%a" -T "TITLE=%t" -T "ALBUM=%g" -T "DATE=%y" -T "TRACKNUMBER=%n" -T "GENRE=%m" %s TOC of the extracted CD

Track | Start | Length | Start sector | End sector
---------------------------------------------------------
1 | 0:00.00 | 5:10.00 | 0 | 23249
2 | 5:10.00 | 9:47.65 | 23250 | 67339
3 | 14:57.65 | 9:56.10 | 67340 | 112049
4 | 24:54.00 | 7:18.00 | 112050 | 144899
5 | 32:12.00 | 5:31.12 | 144900 | 169736
6 | 37:43.12 | 10:40.63 | 169737 | 217799
7 | 48:24.00 | 2:24.00 | 217800 | 228599 Range status and errors

Selected range

Filename F:__EAC_ReleasedMichael Stearns - M'ocean.wav

Peak level 78.1 %
Range quality 99.9 %
Test CRC 9AD61EB0
Copy CRC 9AD61EB0
Copy OK

No errors occurred


AccurateRip summary

Track 1 accurately ripped (confidence 2) [18BA7498]
Track 2 accurately ripped (confidence 2) [90DA44F1]
Track 3 accurately ripped (confidence 2) [EE3305B0]
Track 4 accurately ripped (confidence 2) [7713722C]
Track 5 accurately ripped (confidence 2) [D4E660A2]
Track 6 accurately ripped (confidence 2) [75FC1BCC]
Track 7 accurately ripped (confidence 2) [511B4D57]

All tracks accurately ripped

End of status report

Thanks to EPSmuz


New Download Links
Speed
 kbps
 kbps
 kbps
Michael Stearns - MOcean (1984) rapidshare megaupload hotfile, Michael Stearns - MOcean (1984) via torrent download, rar Zip password mediafire Michael Stearns - MOcean (1984) download included crack, serial, keygen, 2014 2015, 2016 download available. Tags:
You May Like

Warning! -             Sorry, you are not registered user.              Register here account to log in.