category: software16-11-2017 23:55
AMBER 16.Source Code (x86x64) 171117
category: software16-11-2017 23:47
BlackmagicDesign Davinci Resolve Studio 14.0.(x64) 171117
category: software16-11-2017 23:39
Cakewalk SONAR Platinum v23.8.0.30 Rebuild 2 WiN 171117
category: software16-11-2017 23:31
CyberLink.PowerDVD.Ultra.17.0.2101.62.Multilingual 171117
category: software16-11-2017 23:24
Davinci Resolve Studio v14.0 171117
New Ebooks
» » J.S. Bach: Hearts Solace -- Taverner Consort & Players Andrew Parrott

J.S. Bach: Hearts Solace -- Taverner Consort & Players Andrew Parrott

0 0
Category: musics Published: peter Date: 16-05-2015, 08:24

J.S. Bach: Heart's Solace -- Taverner Consort & Players, Andrew Parrott
EAC | FLAC IMG+CUE+LOG | Complete HQ Scans (PDF) | 1CD | 357 MB
Classical: Baroque, Vocal, Sacred | Sony Classical SK 60155 | 1998 (rec. 1997)

Although the title of the disc is just a touch appalling -- Heart's Solace sounds as if it were aimed directly at the crossover market -- the music on the disc truly and deeply lives up to the title. Essentially a collection of two funeral motets and a mourning cantata by Bach, this is music composed to solace the heart torn by grief. Bach, like all good Lutherans, knew that death was not the end and his music sings of compassion and consolation. Amidst the vast number of Bach's sacred vocal works, these works form an aesthetic unity only in the sense that they form an emotional unity, but the strength and profundity of Bach's music make the collection utterly compelling. In this 1997 recording with Andrew Parrott leading the Taverner Consort and Players, Bach's mourning music is vividly brought to life. The performances are at once austere but expressive, warm yet severe, wonderfully musical and at the same time supremely spiritual. Through the clarity of Parrott's performance shines the luminosity of Bach's music as through the lucidity of Bach's music pours the pure light of infinity. Sony's sound is cool, clean, and serene.
James Leonard (AllMusic.com)

EAC Log
Exact Audio Copy V1.0 beta 3 from 29. August 2011

EAC extraction logfile from 13. October 2013, 10:50

Taverner Consort & Players, Andrew Parrott / J.S. Bach: Heart's Solace

Used drive : ATAPI iHAS624 B Adapter: 2 ID: 0

Read mode : Secure
Utilize accurate stream : Yes
Defeat audio cache : No
Make use of C2 pointers : No

Read offset correction : 6
Overread into Lead-In and Lead-Out : No
Fill up missing offset samples with silence : Yes
Delete leading and trailing silent blocks : No
Null samples used in CRC calculations : Yes
Used interface : Native Win32 interface for Win NT & 2000

Used output format : User Defined Encoder
Selected bitrate : 768 kBit/s
Quality : High
Add ID3 tag : Yes
Command line compressor : C:Program Files (x86)Exact Audio CopyFLACFLAC.EXE
Additional command line options : -8 -V -T "ARTIST=%artist%" -T "TITLE=%title%" -T "ALBUM=%albumtitle%" -T "DATE=%year%" -T "TRACKNUMBER=%tracknr%" -T "GENRE=%genre%" -T "COMMENT=%comment%" %hascover%--picture="%coverfile%"%hascover% %source% -o %dest% TOC of the extracted CD

Track | Start | Length | Start sector | End sector
---------------------------------------------------------
1 | 0:00.00 | 7:52.27 | 0 | 35426
2 | 7:52.27 | 1:34.13 | 35427 | 42489
3 | 9:26.40 | 7:03.17 | 42490 | 74231
4 | 16:29.57 | 1:07.10 | 74232 | 79266
5 | 17:36.67 | 3:59.55 | 79267 | 97246
6 | 21:36.47 | 0:47.65 | 97247 | 100836
7 | 22:24.37 | 7:15.23 | 100837 | 133484
8 | 29:39.60 | 0:57.65 | 133485 | 137824
9 | 30:37.50 | 2:02.45 | 137825 | 147019
10 | 32:40.20 | 4:20.47 | 147020 | 166566
11 | 37:00.67 | 2:14.55 | 166567 | 176671
12 | 39:15.47 | 5:46.58 | 176672 | 202679
13 | 45:02.30 | 1:18.05 | 202680 | 208534
14 | 46:20.35 | 3:01.32 | 208535 | 222141
15 | 49:21.67 | 1:11.48 | 222142 | 227514
16 | 50:33.40 | 0:55.65 | 227515 | 231704
17 | 51:29.30 | 2:19.32 | 231705 | 242161
18 | 53:48.62 | 2:46.40 | 242162 | 254651
19 | 56:35.27 | 1:08.30 | 254652 | 259781
20 | 57:43.57 | 1:56.43 | 259782 | 268524
21 | 59:40.25 | 3:53.60 | 268525 | 286059
22 | 63:34.10 | 1:31.60 | 286060 | 292944
23 | 65:05.70 | 1:28.17 | 292945 | 299561 Range status and errors

Selected range

Filename D:EACTaverner Consort & Players, Andrew Parrott - J.S. Bach- Heart's Solace.wav

Peak level 94.2 %
Extraction speed 14.2 X
Range quality 100.0 %
Copy CRC E8A6AFA5
Copy OK

No errors occurred


AccurateRip summary

Track 1 accurately ripped (confidence 3) [843205C9] (AR v2)
Track 2 accurately ripped (confidence 3) [93361F9C] (AR v2)
Track 3 accurately ripped (confidence 3) [47BE1CB8] (AR v2)
Track 4 accurately ripped (confidence 3) [29465426] (AR v2)
Track 5 accurately ripped (confidence 3) [398D5E00] (AR v2)
Track 6 accurately ripped (confidence 3) [549266DF] (AR v2)
Track 7 accurately ripped (confidence 3) [F2554128] (AR v2)
Track 8 accurately ripped (confidence 3) [534BE4D5] (AR v2)
Track 9 accurately ripped (confidence 3) [96325192] (AR v2)
Track 10 accurately ripped (confidence 3) [774E85BB] (AR v2)
Track 11 accurately ripped (confidence 3) [CCD85C25] (AR v2)
Track 12 accurately ripped (confidence 3) [301014B8] (AR v2)
Track 13 accurately ripped (confidence 3) [2115420B] (AR v2)
Track 14 accurately ripped (confidence 3) [D905C47C] (AR v2)
Track 15 accurately ripped (confidence 3) [A534689D] (AR v2)
Track 16 accurately ripped (confidence 3) [3ECFBFC6] (AR v2)
Track 17 accurately ripped (confidence 3) [65379E52] (AR v2)
Track 18 accurately ripped (confidence 3) [1375E009] (AR v2)
Track 19 accurately ripped (confidence 3) [DF99D8CD] (AR v2)
Track 20 accurately ripped (confidence 3) [3EDC188E] (AR v2)
Track 21 accurately ripped (confidence 3) [8C578F14] (AR v2)
Track 22 accurately ripped (confidence 3) [0CC053D7] (AR v2)
Track 23 accurately ripped (confidence 3) [6BE2A150] (AR v2)

All tracks accurately ripped

End of status report

==== Log checksum 4BB5F0126400B3848C0DF1691F2A03EB06FCD345CC2C1E6B87EDBC57293BE452 ====
_TRACKS_

01-02. Motette a 8: Komm, Jesu, komm (BWV 229)
03-12. Trauer-Ode: Laß, Fürstin, laß noch einen Strahl (BWV 198)
13-23. Motette a 5: Jesu, meine Freude (BWV 227)

Taverner Consort & Players
Conductor: Andrew Parrott

_DOWNLOAD_


New Download Links
Speed
 kbps
 kbps
 kbps
J.S. Bach: Hearts Solace -- Taverner rapidshare megaupload hotfile, J.S. Bach: Hearts Solace -- Taverner via torrent download, rar Zip password mediafire J.S. Bach: Hearts Solace -- Taverner download included crack, serial, keygen, 2014 2015, 2016 download available. Tags:
You May Like

Warning! -             Sorry, you are not registered user.              Register here account to log in.